<?xml version="1.0" standalone="no"?>
<!DOCTYPE svg PUBLIC "-//W3C//DTD SVG 1.1//EN" "http://www.w3.org/Graphics/SVG/1.1/DTD/svg11.dtd">
<svg xmlns="http://www.w3.org/2000/svg">
<defs >
<font id="Ubuntu" horiz-adv-x="562" ><font-face
    font-family="Ubuntu Light"
    units-per-em="1000"
    panose-1="2 11 3 4 3 6 2 10 2 4"
    ascent="932"
    descent="-189"
    alphabetic="0" />
<glyph unicode=" " glyph-name="space" horiz-adv-x="232" />
<glyph unicode="!" glyph-name="exclam" horiz-adv-x="226" d="M147 213Q155 279 166 347T197 500L243 693H313L267 499Q263 482 253 445T231 365T206 280T183 213H147ZM123 -12Q97 -12 85 2T73 36Q73 58 88 77T130 97Q156 97 168 83T180 49Q180 27 165 8T123 -12Z" />
<glyph unicode="&quot;" glyph-name="quotedbl" horiz-adv-x="356" d="M348 518Q352 569 359 620T379 723L388 760H458L449 722Q436 672 419 619T381 518H348ZM198 518Q202 569 209 620T229 723L238 760H308L299 722Q286 672 269 619T231 518H198Z" />
<glyph unicode="#" glyph-name="numbersign" horiz-adv-x="623" d="M609 503H695L681 449H586L498 243H633L619 189H475L394 0H332L413 189H238L157 0H95L176 189H88L101 243H200L289 449H150L163 503H312L394 693H456L374 503H547L629 693H691L609 503ZM262 243H436L524
449H350L262 243Z" />
<glyph unicode="$" glyph-name="dollar" horiz-adv-x="564" d="M258 25Q235 24 211 28T164 39T124 53T98 67L130 121Q138 116 151 109T183 95T226 84T279 79Q312 79 345 86T403 108T445 149T461 211Q461 244 444 264T400 300T342 328T285 360T241 407T223 481Q223
556 272 601T410 658L438 776H498L471 663Q517 661 552 648T604 624L572 569Q560 577 529 589T444 602Q411 602 383 596T332 576T298 541T285 490Q285 456 303 435T347 399T405 370T462 338T507 291T525 218Q525 176 510 143T468 85T402 45T317 24L285 -109H226L258
25Z" />
<glyph unicode="%" glyph-name="percent" horiz-adv-x="785" d="M275 400Q311 400 335 419T375 464T398 519T405 568Q405 587 403 603T394 631T375 649T342 656Q306 656 282 637T242 592T221 536T214 488Q214 470 216 454T224 426T242 407T275 400ZM709 693H779L231
0H161L709 693ZM158 480Q158 515 169 555T204 628T262 684T345 707Q402 707 431 674T461 577Q461 542 450 502T415 428T357 372T273 349Q216 349 187 383T158 480ZM601 36Q637 36 661 55T701 100T724 155T731 204Q731 223 729 239T720 267T701 285T668 292Q632
292 608 273T568 228T547 172T540 124Q540 106 542 90T550 62T568 43T601 36ZM484 116Q484 151 495 191T530 264T588 320T671 343Q728 343 757 310T787 213Q787 178 776 138T741 64T683 8T599 -15Q542 -15 513 19T484 116Z" />
<glyph unicode="&amp;" glyph-name="ampersand" horiz-adv-x="634" d="M555 0Q547 23 534 45T505 90Q453 42 394 17T271 -9Q229 -9 197 4T143 40T110 93T98 157Q98 189 107 218T139 276T199 329T292 379Q269 414 258 449T247 519Q247 558 261 592T300 652T362
693T444 708Q474 708 498 698T541 671T568 631T578 580Q578 554 571 528T543 475T486 421T391 366L382 361L513 181Q536 210 557 245T596 324L656 317Q636 263 608 218T548 134Q570 102 588 71T623 0H555ZM276 51Q324 51 374 72T471 136L324 335Q297 322 269 307T217
272T179 226T164 165Q164 145 169 125T187 89T221 62T276 51ZM310 527Q310 496 320 464T351 403Q404 426 436 448T486 491T510 534T516 575Q516 613 493 632T438 652Q405 652 381 642T341 615T318 575T310 527Z" />
<glyph unicode="&apos;" glyph-name="quotesingle" horiz-adv-x="206" d="M198 518Q202 569 209 620T229 723L238 760H308L299 722Q286 672 269 619T231 518H198Z" />
<glyph unicode="(" glyph-name="parenleft" horiz-adv-x="302" d="M193 -179Q161 -103 145 -28T128 128Q128 217 147 306T205 479T300 641T429 783L474 750Q405 688 352 615T263 463T209 300T190 133Q190 61 203 -11T243 -151L193 -179Z" />
<glyph unicode=")" glyph-name="parenright" horiz-adv-x="302" d="M-22 -153Q47 -91 100 -20T189 130T243 292T262 461Q262 534 249 609T206 753L258 779Q291 702 307 627T324 470Q324 380 305 291T247 118T152 -44T23 -186L-22 -153Z" />
<glyph unicode="*" glyph-name="asterisk" horiz-adv-x="430" d="M185 361Q199 382 213 398T241 430T271 460T306 492Q282 494 261 496T219 502T177 512T133 527L155 591Q201 576 235 560T313 521Q309 545 306 565T301 606T297 647T295 693H365Q365 668 364 647T360
606T354 566T347 521Q390 543 424 559T505 591L527 527Q480 508 441 502T353 492Q372 475 388 460T418 430T447 399T475 361L418 322Q404 343 393 362T372 399T351 435T330 476Q318 454 308 436T288 399T266 362T241 322L185 361V361Z" />
<glyph unicode="+" glyph-name="plus" horiz-adv-x="564" d="M319 261H128L142 317H332L385 534H444L391 317H581L567 261H378L325 43H267L319 261Z" />
<glyph unicode="," glyph-name="comma" horiz-adv-x="238" d="M13 -133Q33 -108 50 -77T79 -15T99 45T110 95H180Q174 62 162 27T132 -41T94 -104T53 -157L13 -133Z" />
<glyph unicode="-" glyph-name="hyphen" horiz-adv-x="279" d="M94 321H322L307 258H79L94 321Z" />
<glyph unicode="." glyph-name="period" horiz-adv-x="243" d="M128 -13Q102 -13 90 1T78 35Q78 57 93 76T135 96Q161 96 173 82T185 48Q185 26 170 7T128 -13Z" />
<glyph unicode="/" glyph-name="slash" horiz-adv-x="378" d="M496 783H560L1 -185H-62L496 783Z" />
<glyph unicode="0" glyph-name="zero" horiz-adv-x="564" d="M433 709Q517 708 552 651T588 500Q588 412 566 321T502 155T404 33T276 -15Q234 -15 204 0T156 42T129 108T120 194Q120 253 130 314T159 432T206 539T268 627T344 687T433 709ZM281 45Q330 45 373
84T449 186T501 330T520 491Q520 574 497 611T427 649Q378 649 335 610T259 508T207 364T188 203Q188 120 211 83T281 45Z" />
<glyph unicode="1" glyph-name="one" horiz-adv-x="564" d="M448 592Q416 560 368 534T269 492L257 550Q315 571 373 604T488 693H536L370 0H306L448 592Z" />
<glyph unicode="2" glyph-name="two" horiz-adv-x="564" d="M501 57L488 0H101Q113 75 148 130T230 227T326 304T419 374T488 449T516 543Q516 599 486 624T412 649Q370 649 326 632T250 587L228 641Q266 672 318 690T422 708Q455 708 484 699T536 671T572 622T586
551Q586 504 569 466T524 394T461 333T390 278Q346 245 310 218T248 164T204 112T180 57H501Z" />
<glyph unicode="3" glyph-name="three" horiz-adv-x="564" d="M104 78Q132 61 168 53T244 45Q287 45 324 55T388 87T432 140T448 217Q448 284 401 313T273 343L287 397H312Q360 397 395 412T452 450T485 501T496 556Q496 581 488 599T466 627T434 643T394 648Q359
648 324 637T262 609L248 661Q283 683 323 695T406 708Q437 708 466 700T517 675T552 630T566 562Q566 532 557 503T530 449T483 403T418 369Q436 362 453 350T485 320T509 277T518 219Q518 160 495 116T433 43T346 0T244 -15Q200 -15 158 -6T78 22L104 78Z" />
<glyph unicode="4" glyph-name="four" horiz-adv-x="564" d="M414 242L502 607Q461 574 417 532T331 443T249 344T180 242H414ZM105 227Q136 281 181 342T281 464T397 585T521 693H586L478 242H563L550 188H466L422 0H358L402 188H95L105 227Z" />
<glyph unicode="5" glyph-name="five" horiz-adv-x="564" d="M107 80Q136 63 170 54T240 45Q280 45 318 56T385 88T433 143T451 220Q451 257 438 282T403 324T355 350T302 364T253 370T214 372Q230 417 243 456T268 532T291 609T314 693H616L603 636H359Q352 613
344 585T326 528T308 472T291 423Q342 418 384 405T457 367T504 309T521 228Q521 167 498 122T437 46T349 0T244 -15Q202 -15 161 -7T80 21L107 80Z" />
<glyph unicode="6" glyph-name="six" horiz-adv-x="564" d="M385 414Q430 414 462 402T516 367T547 315T557 249Q557 186 536 137T479 54T400 3T309 -15Q271 -15 238 -2T179 36T140 100T125 191Q125 293 159 384T257 543T410 653T611 696L604 637Q531 635 471
615T363 559T280 476T224 373Q262 392 302 403T385 414ZM487 237Q487 291 459 322T365 354Q324 354 282 342T206 313Q198 284 195 253T192 191Q192 152 201 124T226 77T263 51T307 42Q344 42 376 56T433 95T472 157T487 237Z" />
<glyph unicode="7" glyph-name="seven" horiz-adv-x="564" d="M172 0Q189 55 215 115T273 236T343 355T419 466T497 561T572 633H231L244 693H654L640 635Q595 592 538 523T424 368T318 188T241 0H172Z" />
<glyph unicode="8" glyph-name="eight" horiz-adv-x="564" d="M601 561Q601 532 594 503T568 445T519 391T442 343Q489 317 512 281T535 203Q535 151 514 111T456 42T373 0T274 -15Q239 -15 208 -6T152 21T114 67T99 133Q99 162 106 192T133 253T186 311T271 364Q240
383 220 415T199 489Q199 541 219 582T272 651T348 693T436 708Q509 708 555 672T601 561ZM466 196Q466 227 453 249T419 287T372 315T319 338Q278 317 249 293T202 245T176 196T168 150Q168 121 177 101T202 67T239 48T283 41Q318 41 351 52T409 83T450 132T466
196ZM267 492Q267 466 278 447T307 414T347 389T394 369Q466 407 499 453T533 552Q533 602 506 627T427 652Q395 652 367 642T316 612T280 561T267 492Z" />
<glyph unicode="9" glyph-name="nine" horiz-adv-x="564" d="M339 279Q292 279 259 291T204 325T172 376T162 438Q162 503 183 553T239 637T319 690T412 708Q447 708 479 698T536 664T575 602T590 507Q590 402 557 309T461 147T311 38T114 -2Q109 -2 102 -2T88
-1L100 56Q176 54 239 73T351 127T435 211T491 320Q444 298 403 289T339 279ZM412 651Q376 651 343 638T286 600T247 536T232 449Q232 404 259 372T350 339Q383 339 422 348T508 379Q523 440 523 509Q523 579 495 615T412 651Z" />
<glyph unicode=":" glyph-name="colon" horiz-adv-x="243" d="M128 -13Q102 -13 90 1T78 35Q78 57 93 76T135 96Q161 96 173 82T185 48Q185 26 170 7T128 -13ZM233 408Q207 408 195 422T183 456Q183 478 198 497T240 517Q266 517 278 503T290 469Q290 447 275
428T233 408Z" />
<glyph unicode=";" glyph-name="semicolon" horiz-adv-x="238" d="M13 -133Q33 -108 50 -77T79 -15T99 45T110 95H180Q174 62 162 27T132 -41T94 -104T53 -157L13 -133ZM233 408Q207 408 195 422T183 456Q183 478 198 497T240 517Q266 517 278 503T290 469Q290
447 275 428T233 408Z" />
<glyph unicode="&lt;" glyph-name="less" horiz-adv-x="564" d="M133 328L589 505L594 444L197 294L518 146L486 92L119 270L133 328Z" />
<glyph unicode="=" glyph-name="equal" horiz-adv-x="564" d="M168 432H606L593 376H154L168 432ZM118 222H556L543 166H104L118 222Z" />
<glyph unicode="&gt;" glyph-name="greater" horiz-adv-x="564" d="M569 269L113 92L108 153L505 303L184 451L216 505L583 327L569 269Z" />
<glyph unicode="?" glyph-name="question" horiz-adv-x="365" d="M159 213Q160 249 170 278T197 331T236 377T286 420L298 429Q353 470 375 502T397 573Q397 616 370 633T306 650Q274 650 242 641T185 621L177 676Q207 690 244 699T318 708Q348 708 375 701T422
679T455 638T467 575Q467 533 449 501T402 442T341 389T280 338T233 281T214 213H159ZM168 -12Q142 -12 130 2T118 36Q118 58 133 77T175 97Q201 97 213 83T225 49Q225 27 210 8T168 -12Z" />
<glyph unicode="@" glyph-name="at" horiz-adv-x="928" d="M601 -133Q524 -153 457 -153Q383 -153 321 -131T213 -67T143 36T118 177Q118 306 159 405T271 571T433 673T627 708Q699 708 758 689T860 629T926 529T950 387Q950 298 926 236T865 134T784 76T699 58Q671
58 650 67T621 95Q598 79 565 68T498 56Q462 56 432 65T381 95T347 145T334 217Q334 280 354 333T410 424T496 483T609 505Q657 505 695 497T750 482L675 178Q673 170 671 161T668 143Q668 133 674 124T710 114Q758 114 792 141T847 210T877 301T887 395Q887 459
868 507T814 587T728 635T616 651Q534 651 457 621T319 531T221 386T184 186Q184 50 257 -23T465 -96Q529 -96 606 -78L601 -133ZM676 443Q675 444 668 445T651 448T628 450T603 451Q559 451 523 434T460 387T418 314T403 223Q403 164 429 138T500 111Q544 111
567 120T608 138Q608 159 610 172T615 195L676 443Z" />
<glyph unicode="A" glyph-name="A" horiz-adv-x="622" d="M546 0Q541 48 536 95T524 190H198Q172 144 146 97T94 0H20Q123 186 232 362T446 693H519Q544 547 568 378T616 0H546ZM465 615Q404 522 346 432T232 248H517Q506 338 493 428T465 615Z" />
<glyph unicode="B" glyph-name="B" horiz-adv-x="597" d="M243 680Q275 688 319 694T410 700Q453 700 494 693T567 668T619 620T639 543Q639 509 627 480T596 429T550 390T496 364Q519 358 537 345T568 315T588 276T595 232Q595 161 566 115T490 42T383 5T258
-6Q210 -6 166 -1T83 13L243 680ZM161 59Q182 55 207 54T260 52Q309 52 356 59T441 85T500 139T523 228Q523 287 483 309T352 332H225L161 59ZM333 390Q459 390 513 428T568 531Q568 591 526 616T396 641Q369 641 344 639T300 634L240 390H333Z" />
<glyph unicode="C" glyph-name="C" horiz-adv-x="610" d="M587 31Q546 9 494 -3T391 -15Q335 -15 289 0T209 48T157 131T138 253Q138 360 171 444T260 587T389 677T542 708Q589 708 629 698T712 665L681 603Q609 647 528 647Q465 647 408 620T306 541T236 418T210
255Q210 153 254 100T389 46Q429 46 460 51T513 63T551 77T578 91L587 31Z" />
<glyph unicode="D" glyph-name="D" horiz-adv-x="679" d="M162 60Q187 56 210 55T256 53Q350 53 421 80T541 156T613 269T638 412Q638 527 581 584T401 641Q376 641 351 639T299 633L162 60ZM242 680Q291 691 331 695T410 699Q563 699 637 625T711 415Q711 323
681 246T593 112T447 25T246 -6Q226 -6 204 -5T160 -1T118 4T83 13L242 680Z" />
<glyph unicode="E" glyph-name="E" horiz-adv-x="524" d="M249 693H636L623 634H302L243 393H529L516 335H232L163 59H507L495 0H83L249 693Z" />
<glyph unicode="F" glyph-name="F" horiz-adv-x="500" d="M249 693H632L619 634H302L242 390H525L511 331H231L151 0H83L249 693Z" />
<glyph unicode="G" glyph-name="G" horiz-adv-x="640" d="M593 324H661L589 23Q544 5 496 -5T403 -15Q334 -15 284 4T201 59T154 145T138 259Q138 347 166 428T246 571T372 670T539 708Q584 708 616 703T670 691T707 676T732 663L701 601Q698 604 684 611T648
627T596 641T531 647Q457 647 398 615T297 530T233 408T210 262Q210 158 255 102T400 46Q432 46 465 51T534 69L593 324Z" />
<glyph unicode="H" glyph-name="H" horiz-adv-x="655" d="M249 693H317L243 392H602L674 693H742L577 0H509L589 333H231L151 0H83L249 693Z" />
<glyph unicode="I" glyph-name="I" horiz-adv-x="230" d="M249 693H317L152 0H83L249 693Z" />
<glyph unicode="J" glyph-name="J" horiz-adv-x="450" d="M53 95Q68 80 103 63T186 46Q213 46 237 51T282 73T320 118T349 196L469 693H537L417 188Q403 128 380 89T327 27T261 -6T183 -15Q131 -15 90 1T18 43L53 95Z" />
<glyph unicode="K" glyph-name="K" horiz-adv-x="599" d="M249 693H316L240 374Q289 409 346 454T459 544T560 628T634 693H724Q691 663 640 620T532 531T418 440T314 358Q350 331 389 288T464 194T532 93T581 0H507Q449 112 383 200T233 348L151 0H83L249 693Z" />
<glyph unicode="L" glyph-name="L" horiz-adv-x="474" d="M248 693H316L164 58H471L458 0H83L248 693Z" />
<glyph unicode="M" glyph-name="M" horiz-adv-x="831" d="M68 0Q119 187 174 362T281 693H349Q364 633 379 565T409 429T434 296T454 178Q491 235 537 304T630 444T722 579T803 693H873Q864 602 852 516T827 344T798 174T765 0H695Q730 163 755 311T800 591Q785
572 759 535T700 450T634 351T567 251T509 163T469 100H409Q405 128 398 169T383 257T365 354T346 449T328 532T313 592Q269 460 224 309T136 0H68Z" />
<glyph unicode="N" glyph-name="N" horiz-adv-x="669" d="M249 693H316Q353 629 389 550T458 391T515 236T553 109L689 693H756L592 0H525Q507 61 480 142T422 308T357 469T294 601L150 0H83L249 693Z" />
<glyph unicode="O" glyph-name="O" horiz-adv-x="748" d="M138 258Q138 361 172 444T262 586T388 676T533 708Q582 708 627 692T706 642T760 557T780 436Q780 332 746 249T656 107T529 17T385 -15Q335 -15 291 1T212 51T158 136T138 258ZM210 247Q210 196 224
158T263 96T320 59T391 46Q452 46 509 72T610 150T681 275T708 446Q708 497 694 535T655 597T597 634T527 647Q466 647 409 621T308 543T237 418T210 247Z" />
<glyph unicode="P" glyph-name="P" horiz-adv-x="565" d="M246 680Q284 688 327 693T416 699Q535 699 591 654T647 524Q647 468 625 421T560 340T454 287T310 268H216L151 0H83L246 680ZM319 327Q441 327 508 377T575 515Q575 580 533 610T401 640Q375 640 350
638T303 633L229 327H319Z" />
<glyph unicode="Q" glyph-name="Q" horiz-adv-x="748" d="M138 258Q138 361 172 444T262 586T388 676T533 708Q582 708 627 692T706 642T760 557T780 436Q780 338 750 258T669 120T553 28T419 -13Q416 -22 416 -30Q416 -50 432 -65T475 -93T536 -113T608 -128L582
-184Q547 -180 507 -171T432 -146T374 -104T351 -39Q351 -33 351 -27T353 -13Q309 -8 270 11T201 63T155 145T138 258ZM210 247Q210 196 224 158T263 96T320 59T391 46Q452 46 509 72T610 150T681 275T708 446Q708 497 694 535T655 597T597 634T527 647Q466 647
409 621T308 543T237 418T210 247Z" />
<glyph unicode="R" glyph-name="R" horiz-adv-x="592" d="M408 699Q526 699 585 652T644 517Q644 439 594 381T442 296Q454 274 471 239T505 162T539 79T567 0H495Q467 85 434 158T371 283Q338 280 302 280H218L151 0H83L246 680Q281 687 322 693T408 699ZM314
338Q439 338 506 385T573 519Q573 582 531 611T398 640Q372 640 348 638T303 633L231 338H314Z" />
<glyph unicode="S" glyph-name="S" horiz-adv-x="487" d="M83 93Q112 71 153 58T240 44Q276 44 309 52T369 79T412 126T428 195Q428 235 409 260T362 303T300 336T238 374T190 427T171 510Q171 546 186 581T232 645T311 690T424 708Q467 708 505 700T589 669L554
612Q519 633 485 641T412 650Q379 650 349 643T294 620T256 579T241 517Q241 477 260 452T308 409T370 376T432 339T480 284T499 198Q499 159 484 121T435 52T350 4T226 -15Q178 -15 133 -2T48 34L83 93Z" />
<glyph unicode="T" glyph-name="T" horiz-adv-x="526" d="M382 634H170L183 693H676L662 634H450L298 0H230L382 634Z" />
<glyph unicode="U" glyph-name="U" horiz-adv-x="648" d="M250 693H318L217 274Q212 251 209 229T205 185Q205 155 212 130T236 85T280 55T348 44Q394 44 429 57T490 97T536 168T570 271L672 693H740L636 261Q618 188 593 136T533 50T450 0T342 -16Q289 -16 251
-2T187 39T150 101T138 180Q138 224 150 272L250 693Z" />
<glyph unicode="V" glyph-name="V" horiz-adv-x="595" d="M330 0H267Q253 70 241 139T217 288T194 466T170 693H236Q245 589 254 502T272 340T292 200T314 76Q410 207 501 363T679 693H755Q692 576 636 478T528 295T428 138T330 0Z" />
<glyph unicode="W" glyph-name="W" horiz-adv-x="867" d="M185 0Q168 170 170 342T184 693H250Q240 542 237 388T239 75Q281 141 317 200T390 320T464 450T548 604H608Q613 529 620 455T634 313T650 184T667 76Q700 134 735 206T805 359T875 524T943 693H1017Q936
491 856 321T691 0H619Q600 105 584 229T557 499Q483 364 410 243T257 0H185Z" />
<glyph unicode="X" glyph-name="X" horiz-adv-x="550" d="M325 366L184 693H258L377 412Q442 486 499 556T604 693H680Q610 602 543 522T403 362Q439 275 478 184T551 0H477Q467 31 454 67T424 144T390 227T353 312L92 0H10L325 366Z" />
<glyph unicode="Y" glyph-name="Y" horiz-adv-x="555" d="M310 280Q291 331 274 385T240 492T208 596T180 693H254Q274 607 300 516T358 345Q392 383 430 427T505 517T575 608T634 693H715Q646 601 559 494T378 280L312 0H244L310 280Z" />
<glyph unicode="Z" glyph-name="Z" horiz-adv-x="547" d="M51 51Q80 92 120 141T207 245T303 354T401 460T493 556T572 634H209L223 693H667L653 631Q624 605 584 565T498 478T402 376T305 268T212 160T133 59H520L507 0H40L51 51Z" />
<glyph unicode="[" glyph-name="bracketleft" horiz-adv-x="305" d="M291 783H487L476 733H340L130 -135H267L254 -185H58L291 783Z" />
<glyph unicode="\" glyph-name="backslash" horiz-adv-x="361" d="M283 -185L178 783H238L343 -185H283Z" />
<glyph unicode="]" glyph-name="bracketright" horiz-adv-x="306" d="M-40 -135H96L306 733H169L182 783H378L145 -185H-52L-40 -135Z" />
<glyph unicode="^" glyph-name="asciicircum" horiz-adv-x="564" d="M412 693H461L566 353L517 331L424 625L195 334L150 360L412 693Z" />
<glyph unicode="_" glyph-name="underscore" horiz-adv-x="549" d="M1 -131H501L488 -185H-12L1 -131Z" />
<glyph unicode="`" glyph-name="grave" horiz-adv-x="336" d="M266 773L412 618L377 583L213 715L266 773Z" />
<glyph unicode="a" glyph-name="a" horiz-adv-x="522" d="M487 461Q469 465 454 467T423 469Q361 469 313 445T232 382T182 293T164 191Q164 150 172 123T194 79T226 55T266 47Q307 47 343 66T411 122Q411 149 419 184T434 247L487 461ZM429 -6Q423 6 419 21T412
53Q377 19 339 3T259 -13Q227 -13 198 -2T147 32T112 91T98 178Q98 258 124 323T196 433T306 504T445 529Q507 529 564 508L487 197Q481 172 477 150T473 108Q473 81 478 57T496 4L429 -6Z" />
<glyph unicode="b" glyph-name="b" horiz-adv-x="523" d="M154 59Q190 48 225 48Q290 48 339 74T422 141T472 232T489 331Q489 403 458 436T378 469Q346 469 310 455T238 413L154 59ZM257 489Q287 509 321 519T388 529Q473 529 514 477T555 336Q555 272 533 210T468
98T361 19T213 -12Q142 -12 78 17L257 764L325 776L257 489Z" />
<glyph unicode="c" glyph-name="c" horiz-adv-x="455" d="M435 25Q415 12 374 0T281 -12Q190 -12 144 40T98 183Q98 251 119 313T180 424T280 500T414 529Q466 529 517 512L490 453Q467 462 445 465T401 469Q348 469 305 447T230 386T182 297T165 190Q165 124
195 86T293 48Q314 48 335 52T375 61T407 73T428 84L435 25Z" />
<glyph unicode="d" glyph-name="d" horiz-adv-x="540" d="M493 464Q479 466 462 467T431 469Q361 469 311 444T228 378T180 288T164 190Q164 160 169 135T187 90T218 59T264 48Q289 48 311 55T353 72T389 96T416 121Q416 147 423 179T439 247L493 464ZM434 -6Q429
4 424 20T417 53Q408 43 394 32T359 11T314 -5T259 -12Q216 -12 186 3T136 45T107 106T98 181Q98 244 118 306T181 417T289 498T442 529Q474 529 507 523L564 764L632 776L488 179Q483 161 481 144T478 111Q478 82 483 56T501 4L434 -6Z" />
<glyph unicode="e" glyph-name="e" horiz-adv-x="488" d="M540 396Q540 340 513 305T436 250T317 220T162 207V186Q162 157 168 132T190 89T234 59T308 48Q343 48 378 58T446 88L453 28Q419 9 378 -1T295 -12Q240 -12 203 2T142 41T108 101T98 178Q98 242 117
305T175 418T268 498T395 529Q465 529 502 493T540 396ZM389 470Q349 470 314 454T251 409T203 344T172 266Q257 268 315 277T408 302T459 340T474 392Q474 431 451 450T389 470Z" />
<glyph unicode="f" glyph-name="f" horiz-adv-x="355" d="M171 102Q159 54 148 14T122 -62T88 -128T43 -189L-14 -180Q11 -146 28 -118T58 -61T79 -5T96 58L220 573Q234 633 257 672T310 734T374 766T443 776Q477 776 501 770T547 756L516 704Q495 711 477 715T433
719Q407 719 385 712T345 688T311 643T285 571L271 517H444L432 461H257L171 102Z" />
<glyph unicode="g" glyph-name="g" horiz-adv-x="524" d="M492 462Q460 470 430 470Q361 470 311 446T227 385T178 302T162 214Q162 187 167 163T184 120T217 92T271 81Q305 81 341 93T411 127L492 462ZM44 -89Q65 -106 104 -117T183 -128Q275 -128 324 -86T389
33L394 59Q364 40 330 31T262 21Q219 21 188 35T136 73T106 130T96 200Q96 257 116 315T180 421T287 499T441 529Q477 529 509 522T566 500L454 34Q444 -8 428 -48T381 -119T299 -169T166 -188Q150 -188 130 -186T90 -178T50 -167T16 -151L44 -89Z" />
<glyph unicode="h" glyph-name="h" horiz-adv-x="545" d="M148 0H83L265 764L333 776L267 503Q330 529 386 529Q420 529 449 519T500 489T534 439T547 366Q547 340 543 313T532 257L470 0H405L460 230Q468 263 475 297T482 362Q482 392 473 412T448 445T411 463T367
469Q338 469 309 463T253 448L148 0Z" />
<glyph unicode="i" glyph-name="i" horiz-adv-x="235" d="M208 517H273L148 0H83L208 517ZM234 668Q234 694 248 707T280 721Q300 721 311 709T322 676Q322 652 306 639T274 626Q254 626 244 637T234 668Z" />
<glyph unicode="j" glyph-name="j" horiz-adv-x="235" d="M-86 -115Q-70 -123 -56 -127T-22 -131Q5 -131 24 -120T57 -90T81 -43T99 16L218 517H283L166 28Q153 -26 138 -66T100 -134T46 -174T-30 -188Q-55 -188 -72 -183T-101 -170L-86 -115ZM246 668Q246 694
260 707T292 721Q312 721 323 709T334 676Q334 652 318 639T286 626Q266 626 256 637T246 668Z" />
<glyph unicode="k" glyph-name="k" horiz-adv-x="499" d="M267 764L335 776L220 298Q256 322 293 352T365 413T428 471T472 517H551Q533 494 500 461T429 394T355 331T294 287Q328 261 360 226T420 152T468 74T502 0H432Q388 94 332 161T214 271L148 0H83L267 764Z" />
<glyph unicode="l" glyph-name="l" horiz-adv-x="266" d="M251 764L318 776L194 255Q186 221 179 191T171 134Q171 118 174 105T186 81T211 62T254 48L239 -9Q166 0 137 35T108 125Q108 149 112 175T123 231L251 764Z" />
<glyph unicode="m" glyph-name="m" horiz-adv-x="821" d="M202 499Q217 504 236 509T276 518T319 524T361 527Q403 527 437 516T495 474Q546 504 584 515T660 527Q694 527 723 520T775 494T810 445T823 366Q823 340 819 313T808 257L746 0H681L736 230Q744 263
751 297T758 362Q758 393 750 413T728 446T694 462T653 467Q632 467 599 460T518 422Q524 396 524 366Q524 340 520 313T509 257L447 0H382L437 230Q445 263 452 297T459 362Q459 393 451 413T429 446T395 462T354 467Q331 467 305 463T257 453L148 0H83L202 499Z"
/>
<glyph unicode="n" glyph-name="n" horiz-adv-x="546" d="M202 499Q241 510 285 518T372 527Q408 527 440 520T496 493T534 443T548 366Q548 340 544 313T533 257L471 0H406L461 230Q469 263 475 297T483 362Q483 393 474 413T448 445T409 462T363 467Q337 467
310 463T257 453L148 0H83L202 499Z" />
<glyph unicode="o" glyph-name="o" horiz-adv-x="526" d="M164 166Q164 107 197 77T276 47Q312 47 350 65T419 121T471 216T492 350Q492 409 459 439T380 469Q344 469 306 451T237 395T185 300T164 166ZM558 355Q558 261 532 192T464 78T372 10T272 -12Q237 -12
206 -1T150 32T112 86T98 162Q98 256 124 325T192 439T284 506T384 528Q419 528 450 517T506 484T544 430T558 355Z" />
<glyph unicode="p" glyph-name="p" horiz-adv-x="519" d="M164 60Q195 51 227 51Q289 51 337 75T418 139T468 228T485 329Q485 404 452 438T353 473Q330 473 307 469T258 458L164 60ZM202 496Q244 511 286 520T369 529Q551 529 551 339Q551 272 529 209T465 98T361
20T220 -9Q181 -9 148 0L104 -185H38L202 496Z" />
<glyph unicode="q" glyph-name="q" horiz-adv-x="539" d="M496 463Q485 465 473 468T450 471Q385 471 333 450T243 390T185 300T164 185Q164 164 168 140T184 94T218 59T278 45Q313 45 347 57T406 90L496 463ZM388 16Q365 3 333 -4T264 -12Q219 -12 188 3T136
45T107 105T98 176Q98 239 118 302T183 416T298 497T470 529Q489 529 519 523T571 503L405 -185H340L388 16Z" />
<glyph unicode="r" glyph-name="r" horiz-adv-x="366" d="M201 494Q239 509 284 519T374 529Q397 529 418 526T458 516L441 457Q402 469 361 469Q335 469 309 465T257 453L148 0H83L201 494Z" />
<glyph unicode="s" glyph-name="s" horiz-adv-x="400" d="M76 82Q113 62 141 55T204 48Q229 48 252 53T292 70T319 99T329 141Q329 167 315 184T279 213T232 238T186 266T150 306T135 368Q135 411 151 441T194 491T256 520T328 529Q360 529 391 524T452 507L426
449Q405 458 378 463T322 469Q298 469 276 464T236 448T209 419T198 376Q198 350 212 333T248 303T294 279T341 251T376 213T391 155Q391 111 375 79T331 27T269 -2T197 -12Q158 -12 119 -4T48 23L76 82Z" />
<glyph unicode="t" glyph-name="t" horiz-adv-x="377" d="M238 669L306 681L267 517H449L436 461H253L192 208Q187 190 184 170T180 129Q180 84 202 66T257 48Q289 48 312 55T362 74L368 15Q341 4 308 -4T241 -12Q215 -12 192 -6T152 14T124 51T113 109Q113 152
127 208L238 669Z" />
<glyph unicode="u" glyph-name="u" horiz-adv-x="522" d="M248 -12Q205 -12 176 -1T130 29T106 75T98 133Q98 162 103 194T116 260L178 517H243L188 289Q180 254 171 216T161 142Q161 122 165 105T181 75T210 55T256 48Q304 48 340 67T409 122Q409 149 417 184T432
247L499 517H564L485 197Q479 172 475 150T471 108Q471 81 476 57T494 4L427 -6Q421 6 417 21T410 53Q375 19 336 4T248 -12Z" />
<glyph unicode="v" glyph-name="v" horiz-adv-x="455" d="M197 0Q172 111 152 244T130 517H194Q195 463 199 403T210 283T226 167T248 67Q278 107 313 162T383 279T445 402T491 517H555Q535 454 503 385T432 248T349 116T261 0H197Z" />
<glyph unicode="w" glyph-name="w" horiz-adv-x="763" d="M246 0H178Q157 110 145 241T130 517H194Q195 464 198 402T206 277T217 160T231 68Q263 113 296 168T360 282T417 402T462 517H529Q529 468 531 410T538 292T547 174T560 68Q584 95 618 149T688 268T753
399T799 517H863Q840 443 803 366T725 219T642 92T570 0H502Q492 88 483 190T472 391Q452 344 426 291T369 185T308 84T246 0Z" />
<glyph unicode="x" glyph-name="x" horiz-adv-x="452" d="M254 271L126 517H202L303 308Q349 364 392 419T462 517H534Q490 451 437 385T333 261Q346 236 362 205T394 140T425 70T451 0H383Q376 23 365 51T341 110T313 169T287 223L91 0H12L254 271Z" />
<glyph unicode="y" glyph-name="y" horiz-adv-x="452" d="M-36 -116Q-9 -131 25 -131Q76 -131 125 -103T216 -18Q174 115 150 252T122 517H190Q192 469 196 412T210 293T232 167T264 41Q309 112 345 184T408 321T452 436T478 517H542Q536 496 520 446T477 328T412
184T323 32Q246 -83 174 -135T24 -188Q6 -188 -15 -185T-59 -170L-36 -116Z" />
<glyph unicode="z" glyph-name="z" horiz-adv-x="428" d="M51 46Q71 78 101 116T165 193T237 271T309 345T376 410T432 461H163L175 517H528L516 466Q495 447 462 416T391 348T313 269T237 188T171 115T127 56H422L410 0H40L51 46Z" />
<glyph unicode="{" glyph-name="braceleft" horiz-adv-x="305" d="M241 -195Q179 -195 145 -171T110 -93Q110 -82 113 -64T121 -25L159 129Q164 147 166 163T169 194Q169 223 156 242T108 264L120 313Q149 313 168 327T201 364T222 411T235 457L261 561Q275 618
288 658T323 723T381 761T477 773L464 723Q439 723 419 720T382 705T353 672T331 615L302 497Q290 450 279 415T255 353T226 310T186 283Q211 268 218 246T226 199Q226 181 223 163T215 127L175 -38Q168 -65 168 -85Q168 -117 190 -131T255 -145L241 -195V-195Z"
/>
<glyph unicode="|" glyph-name="bar" horiz-adv-x="269" d="M291 783H351L118 -185H58L291 783Z" />
<glyph unicode="}" glyph-name="braceright" horiz-adv-x="305" d="M218 773Q280 773 314 749T349 671Q349 660 346 642T338 603L300 449Q295 431 293 415T290 384Q290 355 303 336T351 314L339 265Q310 265 291 251T258 214T237 167T224 121L198 17Q184 -40 171
-80T136 -146T78 -183T-18 -195L-5 -145Q20 -145 40 -142T77 -127T106 -94T128 -37L157 81Q169 128 180 163T204 225T233 268T273 295Q248 310 241 332T233 379Q233 397 236 415T244 451L284 616Q291 643 291 663Q291 695 269 709T204 723L218 773V773Z" />
<glyph unicode="~" glyph-name="asciitilde" horiz-adv-x="564" d="M106 236Q113 253 125 275T155 316T199 349T257 363Q289 363 311 349T353 317T393 285T440 270Q461 270 477 280T504 305T523 332T533 352L581 336Q575 320 564 298T533 257T488 224T428 210Q396
210 374 224T332 256T293 288T247 303Q226 303 210 292T183 267T164 240T154 220L106 236Z" />
<glyph unicode="&#xa0;" glyph-name="uni00A0" horiz-adv-x="232" />
<glyph unicode="&#xa1;" glyph-name="exclamdown" horiz-adv-x="266" d="M222 295Q212 269 200 228T175 143T152 63T138 9L92 -185H162L208 8Q228 93 239 161T258 295H222ZM282 520Q308 520 320 506T332 472Q332 450 317 431T275 411Q249 411 237 425T225 459Q225
481 240 500T282 520Z" />
<glyph unicode="&#xa2;" glyph-name="cent" horiz-adv-x="564" d="M291 34Q252 42 225 60T181 102T157 157T149 221Q149 277 166 331T217 430T300 507T414 550L449 693H508L474 552Q499 552 529 546T584 528L558 471Q531 484 505 489T453 495Q403 495 360 474T285
416T234 329T215 220Q215 185 226 160T257 119T303 96T357 88Q388 88 419 96T478 119L482 61Q467 53 430 42T349 31L315 -109H256L291 34Z" />
<glyph unicode="&#xa3;" glyph-name="sterling" horiz-adv-x="564" d="M146 364H242L264 456Q281 528 306 576T363 653T434 694T519 706Q553 706 585 697T643 673L612 619Q569 645 507 645Q476 645 450 637T401 607T362 549T331 457L309 364H505L491 309H296Q285
256 265 189T218 57H517L503 0H129Q155 69 183 149T229 309H133L146 364Z" />
<glyph unicode="&#xa4;" glyph-name="currency" horiz-adv-x="564" d="M183 347Q183 380 192 409T218 462L144 538L184 579L260 501Q283 518 311 527T370 536Q401 536 429 527T480 501L556 579L596 538L522 462Q539 439 548 410T557 347Q557 314 548 285T522 232L596
156L556 115L480 193Q457 176 429 167T370 158Q339 158 311 167T260 193L184 115L144 156L218 232Q201 255 192 284T183 347ZM499 347Q499 377 489 402T462 445T421 473T370 483Q343 483 320 473T279 445T251 402T241 347Q241 317 251 292T278 249T319 221T370
211Q397 211 420 221T461 249T489 292T499 347Z" />
<glyph unicode="&#xa5;" glyph-name="yen" horiz-adv-x="564" d="M362 372Q434 451 498 532T622 693H688Q656 650 624 607T558 520T485 431T401 340H557L544 287H376L348 168H516L503 115H335L307 0H242L270 115H103L116 168H283L311 287H144L157 340H310Q272
433 243 519T192 693H261Q279 608 303 530T362 372Z" />
<glyph unicode="&#xa6;" glyph-name="brokenbar" horiz-adv-x="263" d="M295 783H357L267 407H204L295 783ZM152 190H214L124 -185H62L152 190Z" />
<glyph unicode="&#xa7;" glyph-name="section" horiz-adv-x="492" d="M131 284Q131 341 167 384T264 463Q249 482 241 503T233 545Q233 588 251 619T298 669T366 698T444 708Q482 708 518 700T584 677L556 626Q533 642 503 649T443 657Q415 657 389 651T343 632T311
601T299 558Q299 526 316 508T359 478T415 456T471 431T514 390T532 322Q532 266 496 224T403 149Q421 135 432 114T443 63Q443 18 424 -14T374 -68T303 -99T220 -109Q177 -109 135 -100T58 -73L89 -17Q115 -35 151 -44T224 -53Q253 -53 280 -47T329 -28T363 4T376
51Q376 79 358 96T313 124T254 146T195 173T149 216T131 284ZM197 294Q197 264 214 245T269 210L349 177Q401 199 433 236T466 311Q466 336 452 356T394 394L300 431Q280 420 262 406T229 375T206 337T197 294Z" />
<glyph unicode="&#xa8;" glyph-name="dieresis" horiz-adv-x="336" d="M392 625Q369 625 359 637T348 667Q348 687 361 704T399 721Q421 721 431 708T442 679Q442 660 429 643T392 625ZM219 625Q197 625 187 637T176 667Q176 687 189 704T226 721Q249 721 259
708T270 679Q270 660 257 643T219 625Z" />
<glyph unicode="&#xa9;" glyph-name="copyright" horiz-adv-x="754" d="M462 142Q423 142 390 156T331 196T292 260T278 348Q278 396 293 433T335 497T395 537T466 551Q515 551 545 538T587 516L568 471Q553 479 530 488T466 498Q411 498 375 459T338 348Q338
274 373 235T470 195Q513 195 537 204T573 221L590 173Q577 165 544 154T462 142ZM796 347Q796 261 768 194T694 81T586 10T457 -15Q390 -15 329 9T221 80T146 194T118 347Q118 432 146 499T220 613T328 683T457 708Q524 708 585 684T693 613T768 500T796 347ZM737
347Q737 416 716 473T658 570T570 633T457 655Q396 655 345 633T256 571T198 473T177 347Q177 278 198 221T256 124T344 61T457 38Q518 38 569 60T658 123T716 221T737 347Z" />
<glyph unicode="&#xaa;" glyph-name="ordfeminine" horiz-adv-x="434" d="M446 652Q441 654 436 655T422 656Q380 656 346 638T289 592T254 527T241 456Q241 414 260 397T308 380Q328 380 351 388T395 411Q394 416 394 423T394 433Q394 441 395 455T403 492L446
652ZM422 328Q416 337 413 344T406 362Q388 351 362 342T298 332Q241 332 212 365T183 459Q183 503 199 546T248 625T328 682T438 704Q451 704 475 699T516 686Q507 652 495 614T473 541T455 475T448 424Q448 405 455 383T477 338L422 328Z" />
<glyph unicode="&#xab;" glyph-name="guillemotleft" horiz-adv-x="478" d="M232 72L118 284L307 495L343 465L195 280L278 94L232 72ZM409 72L295 284L484 495L520 465L372 280L455 94L409 72Z" />
<glyph unicode="&#xac;" glyph-name="logicalnot" horiz-adv-x="564" d="M497 54H439L505 330H131L144 386H576L497 54Z" />
<glyph unicode="&#xad;" glyph-name="uni00AD" horiz-adv-x="279" d="M94 321H322L307 258H79L94 321Z" />
<glyph unicode="&#xae;" glyph-name="registered" horiz-adv-x="754" d="M565 149Q539 196 511 238T462 306Q455 305 449 305T438 305H375V149H320V536Q343 541 371 544T425 547Q510 547 554 516T599 422Q599 386 579 358T520 315Q528 306 541 288T570 246T600
197T626 149H565ZM375 350H425Q450 350 471 353T507 364T531 387T540 423Q540 444 531 458T506 482T470 495T428 499Q413 499 400 499T375 497V350ZM796 347Q796 261 768 194T694 81T586 10T457 -15Q390 -15 329 9T221 80T146 194T118 347Q118 432 146 499T220
613T328 683T457 708Q524 708 585 684T693 613T768 500T796 347ZM737 347Q737 416 716 473T658 570T570 633T457 655Q396 655 345 633T256 571T198 473T177 347Q177 278 198 221T256 124T344 61T457 38Q518 38 569 60T658 123T716 221T737 347Z" />
<glyph unicode="&#xaf;" glyph-name="overscore" horiz-adv-x="336" d="M176 647L189 704H448L435 647H176Z" />
<glyph unicode="&#xb0;" glyph-name="degree" horiz-adv-x="309" d="M298 511Q272 511 249 520T207 545T179 586T168 642Q168 673 178 697T207 738T248 764T298 773Q324 773 347 764T389 739T417 698T428 642Q428 611 418 587T389 546T348 520T298 511ZM298 556Q333
556 356 579T380 642Q380 682 357 705T298 728Q263 728 240 705T216 642Q216 602 239 579T298 556Z" />
<glyph unicode="&#xb1;" glyph-name="plusminus" horiz-adv-x="564" d="M336 345H145L159 401H349L402 618H461L408 401H598L584 345H395L342 127H284L336 345ZM87 57H516L503 1H74L87 57Z" />
<glyph unicode="&#xb2;" glyph-name="twosuperior" horiz-adv-x="363" d="M135 317Q138 362 157 393T204 448T263 488T320 523T364 561T382 610Q382 635 367 647T328 660Q297 660 271 650T226 626L207 663Q236 687 266 697T329 708Q350 708 369 704T404 689T429
660T438 614Q438 582 422 557T381 512T326 475T270 440T223 405T198 365H388L376 317H135Z" />
<glyph unicode="&#xb3;" glyph-name="threesuperior" horiz-adv-x="363" d="M157 377Q175 367 199 362T248 357Q302 357 333 379T365 438Q365 470 340 484T254 499H248L259 544H281Q335 544 363 566T391 617Q391 661 332 661Q306 661 279 654T237 638L226 678Q251
692 281 700T344 708Q395 708 420 683T445 625Q445 596 424 567T361 521Q393 510 407 489T421 441Q421 418 411 395T380 352T326 321T245 309Q216 309 188 315T136 333L157 377Z" />
<glyph unicode="&#xb4;" glyph-name="acute" horiz-adv-x="336" d="M420 711L245 583L216 627L382 773L420 711Z" />
<glyph unicode="&#xb5;" glyph-name="mu" horiz-adv-x="561" d="M277 -12Q232 -12 203 2T157 37L103 -185H38L207 517H272L217 289Q209 254 199 215T188 140Q188 95 208 72T285 48Q333 48 368 63T436 111Q437 137 443 168T461 247L528 517H593L514 197Q509 178
506 159T502 123Q502 110 504 99T512 77T532 60T566 49L550 -9Q540 -9 525 -6T494 4T466 22T447 49Q408 17 365 3T277 -12Z" />
<glyph unicode="&#xb6;" glyph-name="paragraph" horiz-adv-x="585" d="M341 264Q290 264 252 278T189 316T151 371T138 437Q138 487 160 534T227 618T340 677T499 700Q519 700 543 699T592 696T637 691T674 683L466 -185H408L606 636Q585 638 566 639T525 641Q517
641 509 641T491 640L292 -185H234L341 264Z" />
<glyph unicode="&#xb7;" glyph-name="middot" horiz-adv-x="203" d="M168 287Q142 287 130 301T118 335Q118 357 133 376T175 396Q201 396 213 382T225 348Q225 326 210 307T168 287Z" />
<glyph unicode="&#xb8;" glyph-name="cedilla" horiz-adv-x="336" d="M53 -132Q75 -141 102 -141Q125 -141 139 -134T153 -110Q153 -95 144 -86T106 -66Q111 -56 119 -43T137 -18T154 5T166 20H213Q205 9 193 -8T172 -38Q195 -51 205 -64T216 -102Q216 -143 185
-165T105 -187Q88 -187 72 -185T35 -175L53 -132Z" />
<glyph unicode="&#xb9;" glyph-name="onesuperior" horiz-adv-x="363" d="M267 317L341 625Q312 605 280 594T234 578L226 620Q275 637 310 655T376 699H412L321 317H267Z" />
<glyph unicode="&#xba;" glyph-name="ordmasculine" horiz-adv-x="444" d="M387 656Q354 656 327 639T281 594T252 534T241 469Q241 380 312 380Q345 380 372 397T418 442T447 502T458 567Q458 656 387 656ZM298 331Q268 331 247 341T211 370T190 411T183 460Q183
504 197 547T239 626T307 683T401 705Q431 705 452 695T488 666T509 625T516 576Q516 532 502 489T460 410T391 353T298 331Z" />
<glyph unicode="&#xbb;" glyph-name="guillemotright" horiz-adv-x="478" d="M396 495L510 283L321 72L285 102L433 287L350 473L396 495ZM219 495L333 283L144 72L108 102L256 287L173 473L219 495Z" />
<glyph unicode="&#xbc;" glyph-name="onequarter" horiz-adv-x="878" d="M725 693H795L234 0H164L725 693ZM502 317L576 625Q547 605 515 594T469 578L461 620Q510 637 545 655T611 699H647L556 317H502ZM500 97L508 130Q524 155 553 190T617 261T690 329T761
383H808L750 141H798L787 97H740L717 1H664L686 97H500ZM698 141L741 321Q695 285 650 238T567 141H698Z" />
<glyph unicode="&#xbd;" glyph-name="onehalf" horiz-adv-x="878" d="M735 693H805L244 0H174L735 693ZM512 317L586 625Q557 605 525 594T479 578L471 620Q520 637 555 655T621 699H657L566 317H512ZM557 1Q560 46 579 77T626 132T685 172T742 207T786 245T804
294Q804 319 789 331T750 344Q719 344 693 334T648 310L629 347Q658 371 688 381T751 392Q772 392 791 388T826 373T851 344T860 298Q860 266 844 241T803 196T748 159T692 124T645 89T620 49H810L798 1H557Z" />
<glyph unicode="&#xbe;" glyph-name="threequarters" horiz-adv-x="878" d="M762 693H832L271 0H201L762 693ZM403 377Q421 367 445 362T494 357Q548 357 579 379T611 438Q611 470 586 484T500 499H494L505 544H527Q581 544 609 566T637 617Q637 661 578 661Q552
661 525 654T483 638L472 678Q497 692 527 700T590 708Q641 708 666 683T691 625Q691 596 670 567T607 521Q639 510 653 489T667 441Q667 418 657 395T626 352T572 321T491 309Q462 309 434 315T382 333L403 377ZM561 97L569 130Q585 155 614 190T678 261T751 329T822
383H869L811 141H859L848 97H801L778 1H725L747 97H561ZM759 141L802 321Q756 285 711 238T628 141H759Z" />
<glyph unicode="&#xbf;" glyph-name="questiondown" horiz-adv-x="385" d="M345 307Q345 269 327 239T280 183T219 131T158 79T111 19T92 -55Q92 -92 104 -117T136 -158T184 -181T241 -188Q278 -188 315 -179T382 -156L374 -101Q350 -112 318 -121T253 -130Q235
-130 219 -126T190 -113T170 -90T162 -53Q162 -14 184 18T261 91L273 100Q300 121 322 142T362 188T389 242T400 307H345ZM391 532Q417 532 429 518T441 484Q441 462 426 443T384 423Q358 423 346 437T334 471Q334 493 349 512T391 532Z" />
<glyph unicode="&#xc0;" glyph-name="Agrave" horiz-adv-x="622" d="M546 0Q541 48 536 95T524 190H198Q172 144 146 97T94 0H20Q123 186 232 362T446 693H519Q544 547 568 378T616 0H546ZM465 615Q404 522 346 432T232 248H517Q506 338 493 428T465 615ZM442
923L588 768L553 733L389 865L442 923Z" />
<glyph unicode="&#xc1;" glyph-name="Aacute" horiz-adv-x="622" d="M546 0Q541 48 536 95T524 190H198Q172 144 146 97T94 0H20Q123 186 232 362T446 693H519Q544 547 568 378T616 0H546ZM465 615Q404 522 346 432T232 248H517Q506 338 493 428T465 615ZM635
861L460 733L431 777L597 923L635 861Z" />
<glyph unicode="&#xc2;" glyph-name="Acircumflex" horiz-adv-x="622" d="M546 0Q541 48 536 95T524 190H198Q172 144 146 97T94 0H20Q123 186 232 362T446 693H519Q544 547 568 378T616 0H546ZM465 615Q404 522 346 432T232 248H517Q506 338 493 428T465 615ZM390
734L364 767L533 914L632 767L598 734L517 830L390 734Z" />
<glyph unicode="&#xc3;" glyph-name="Atilde" horiz-adv-x="622" d="M546 0Q541 48 536 95T524 190H198Q172 144 146 97T94 0H20Q123 186 232 362T446 693H519Q544 547 568 378T616 0H546ZM465 615Q404 522 346 432T232 248H517Q506 338 493 428T465 615ZM566
781Q547 781 533 787T506 800T480 814T448 820Q426 820 412 809T382 774L346 796Q354 810 364 824T387 849T419 866T462 873Q480 873 494 867T521 854T548 840T580 834Q602 834 616 845T646 880L682 857Q674 843 664 829T641 805T609 788T566 781Z" />
<glyph unicode="&#xc4;" glyph-name="Adieresis" horiz-adv-x="622" d="M546 0Q541 48 536 95T524 190H198Q172 144 146 97T94 0H20Q123 186 232 362T446 693H519Q544 547 568 378T616 0H546ZM465 615Q404 522 346 432T232 248H517Q506 338 493 428T465 615ZM598
779Q575 779 565 791T554 821Q554 841 567 858T605 875Q627 875 637 862T648 833Q648 814 635 797T598 779ZM425 779Q403 779 393 791T382 821Q382 841 395 858T432 875Q455 875 465 862T476 833Q476 814 463 797T425 779Z" />
<glyph unicode="&#xc5;" glyph-name="Aring" horiz-adv-x="622" d="M586 737Q586 704 570 681T527 647Q550 508 572 351T616 0H546Q541 48 536 95T524 190H198Q172 144 146 97T94 0H20Q117 175 222 345T427 664Q395 691 395 737Q395 780 423 806T491 832Q510 832
527 825T558 806T578 776T586 737ZM465 615Q404 522 346 432T232 248H517Q506 338 493 428T465 615ZM548 737Q548 765 532 780T491 796Q467 796 451 781T434 737Q434 708 450 693T491 678Q515 678 531 693T548 737Z" />
<glyph unicode="&#xc6;" glyph-name="AE" horiz-adv-x="891" d="M515 190H230Q193 142 159 95T92 0H18Q88 100 156 189T295 363T438 528T592 693H1003L990 634H689L630 393H896L883 335H619L550 59H874L862 0H470L515 190ZM624 644Q594 614 554 572T469 479T374
369T276 248H529L624 644Z" />
<glyph unicode="&#xc7;" glyph-name="Ccedilla" horiz-adv-x="610" d="M264 -132Q286 -141 313 -141Q336 -141 350 -134T364 -110Q364 -95 355 -86T317 -66Q322 -55 331 -41T351 -13Q303 -8 264 10T197 60T154 140T138 253Q138 360 171 444T260 587T389 677T542
708Q589 708 629 698T712 665L681 603Q609 647 528 647Q465 647 408 620T306 541T236 418T210 255Q210 153 254 100T389 46Q429 46 460 51T513 63T551 77T578 91L587 31Q548 10 498 -2T398 -15Q390 -25 383 -38Q406 -51 416 -64T427 -102Q427 -143 396 -165T316
-187Q299 -187 283 -185T246 -175L264 -132Z" />
<glyph unicode="&#xc8;" glyph-name="Egrave" horiz-adv-x="524" d="M249 693H636L623 634H302L243 393H529L516 335H232L163 59H507L495 0H83L249 693ZM400 923L546 768L511 733L347 865L400 923Z" />
<glyph unicode="&#xc9;" glyph-name="Eacute" horiz-adv-x="524" d="M249 693H636L623 634H302L243 393H529L516 335H232L163 59H507L495 0H83L249 693ZM576 861L401 733L372 777L538 923L576 861Z" />
<glyph unicode="&#xca;" glyph-name="Ecircumflex" horiz-adv-x="524" d="M249 693H636L623 634H302L243 393H529L516 335H232L163 59H507L495 0H83L249 693ZM346 734L320 767L489 914L588 767L554 734L473 830L346 734Z" />
<glyph unicode="&#xcb;" glyph-name="Edieresis" horiz-adv-x="524" d="M249 693H636L623 634H302L243 393H529L516 335H232L163 59H507L495 0H83L249 693ZM556 779Q533 779 523 791T512 821Q512 841 525 858T563 875Q585 875 595 862T606 833Q606 814 593 797T556
779ZM383 779Q361 779 351 791T340 821Q340 841 353 858T390 875Q413 875 423 862T434 833Q434 814 421 797T383 779Z" />
<glyph unicode="&#xcc;" glyph-name="Igrave" horiz-adv-x="230" d="M249 693H317L152 0H83L249 693ZM218 923L364 768L329 733L165 865L218 923Z" />
<glyph unicode="&#xcd;" glyph-name="Iacute" horiz-adv-x="230" d="M249 693H317L152 0H83L249 693ZM421 861L246 733L217 777L383 923L421 861Z" />
<glyph unicode="&#xce;" glyph-name="Icircumflex" horiz-adv-x="230" d="M249 693H317L152 0H83L249 693ZM188 734L162 767L331 914L430 767L396 734L315 830L188 734Z" />
<glyph unicode="&#xcf;" glyph-name="Idieresis" horiz-adv-x="230" d="M249 693H317L152 0H83L249 693ZM398 779Q375 779 365 791T354 821Q354 841 367 858T405 875Q427 875 437 862T448 833Q448 814 435 797T398 779ZM225 779Q203 779 193 791T182 821Q182 841
195 858T232 875Q255 875 265 862T276 833Q276 814 263 797T225 779Z" />
<glyph unicode="&#xd0;" glyph-name="Eth" horiz-adv-x="692" d="M173 335H93L106 390H186L255 680Q304 691 344 695T423 699Q567 699 645 632T724 426Q724 347 700 270T621 131T478 32T259 -6Q239 -6 217 -5T173 -1T131 4T96 13L173 335ZM254 390H385L372 335H241L175
60Q200 56 223 55T269 53Q358 53 429 79T549 155T625 274T652 430Q652 488 633 528T582 594T506 630T414 641Q389 641 364 639T312 633L254 390Z" />
<glyph unicode="&#xd1;" glyph-name="Ntilde" horiz-adv-x="669" d="M249 693H316Q353 629 389 550T458 391T515 236T553 109L689 693H756L592 0H525Q507 61 480 142T422 308T357 469T294 601L150 0H83L249 693ZM581 781Q562 781 548 787T521 800T495 814T463
820Q441 820 427 809T397 774L361 796Q369 810 379 824T402 849T434 866T477 873Q495 873 509 867T536 854T563 840T595 834Q617 834 631 845T661 880L697 857Q689 843 679 829T656 805T624 788T581 781Z" />
<glyph unicode="&#xd2;" glyph-name="Ograve" horiz-adv-x="748" d="M138 258Q138 361 172 444T262 586T388 676T533 708Q582 708 627 692T706 642T760 557T780 436Q780 332 746 249T656 107T529 17T385 -15Q335 -15 291 1T212 51T158 136T138 258ZM210 247Q210
196 224 158T263 96T320 59T391 46Q452 46 509 72T610 150T681 275T708 446Q708 497 694 535T655 597T597 634T527 647Q466 647 409 621T308 543T237 418T210 247ZM480 923L626 768L591 733L427 865L480 923Z" />
<glyph unicode="&#xd3;" glyph-name="Oacute" horiz-adv-x="748" d="M138 258Q138 361 172 444T262 586T388 676T533 708Q582 708 627 692T706 642T760 557T780 436Q780 332 746 249T656 107T529 17T385 -15Q335 -15 291 1T212 51T158 136T138 258ZM210 247Q210
196 224 158T263 96T320 59T391 46Q452 46 509 72T610 150T681 275T708 446Q708 497 694 535T655 597T597 634T527 647Q466 647 409 621T308 543T237 418T210 247ZM690 861L515 733L486 777L652 923L690 861Z" />
<glyph unicode="&#xd4;" glyph-name="Ocircumflex" horiz-adv-x="748" d="M138 258Q138 361 172 444T262 586T388 676T533 708Q582 708 627 692T706 642T760 557T780 436Q780 332 746 249T656 107T529 17T385 -15Q335 -15 291 1T212 51T158 136T138 258ZM210 247Q210
196 224 158T263 96T320 59T391 46Q452 46 509 72T610 150T681 275T708 446Q708 497 694 535T655 597T597 634T527 647Q466 647 409 621T308 543T237 418T210 247ZM445 734L419 767L588 914L687 767L653 734L572 830L445 734Z" />
<glyph unicode="&#xd5;" glyph-name="Otilde" horiz-adv-x="748" d="M138 258Q138 361 172 444T262 586T388 676T533 708Q582 708 627 692T706 642T760 557T780 436Q780 332 746 249T656 107T529 17T385 -15Q335 -15 291 1T212 51T158 136T138 258ZM210 247Q210
196 224 158T263 96T320 59T391 46Q452 46 509 72T610 150T681 275T708 446Q708 497 694 535T655 597T597 634T527 647Q466 647 409 621T308 543T237 418T210 247ZM613 781Q594 781 580 787T553 800T527 814T495 820Q473 820 459 809T429 774L393 796Q401 810 411
824T434 849T466 866T509 873Q527 873 541 867T568 854T595 840T627 834Q649 834 663 845T693 880L729 857Q721 843 711 829T688 805T656 788T613 781Z" />
<glyph unicode="&#xd6;" glyph-name="Odieresis" horiz-adv-x="748" d="M138 258Q138 361 172 444T262 586T388 676T533 708Q582 708 627 692T706 642T760 557T780 436Q780 332 746 249T656 107T529 17T385 -15Q335 -15 291 1T212 51T158 136T138 258ZM210 247Q210
196 224 158T263 96T320 59T391 46Q452 46 509 72T610 150T681 275T708 446Q708 497 694 535T655 597T597 634T527 647Q466 647 409 621T308 543T237 418T210 247ZM676 779Q653 779 643 791T632 821Q632 841 645 858T683 875Q705 875 715 862T726 833Q726 814 713
797T676 779ZM503 779Q481 779 471 791T460 821Q460 841 473 858T510 875Q533 875 543 862T554 833Q554 814 541 797T503 779Z" />
<glyph unicode="&#xd7;" glyph-name="multiply" horiz-adv-x="564" d="M166 103L133 146L311 290L195 443L238 478L353 326L542 478L576 436L386 285L499 137L456 103L345 249L166 103Z" />
<glyph unicode="&#xd8;" glyph-name="Oslash" horiz-adv-x="748" d="M138 258Q138 361 172 444T262 586T388 676T533 708Q578 708 618 695T692 654L755 726L797 690L730 613Q753 580 766 537T780 436Q780 332 746 249T656 107T529 17T385 -15Q340 -15 300 -2T226
38L167 -29L124 8L187 80Q164 113 151 157T138 258ZM708 446Q708 512 683 559L270 88Q318 46 391 46Q452 46 509 72T610 150T681 275T708 446ZM210 247Q210 179 234 134L648 604Q624 626 593 636T527 647Q466 647 409 621T308 543T237 418T210 247Z" />
<glyph unicode="&#xd9;" glyph-name="Ugrave" horiz-adv-x="648" d="M250 693H318L217 274Q212 251 209 229T205 185Q205 155 212 130T236 85T280 55T348 44Q394 44 429 57T490 97T536 168T570 271L672 693H740L636 261Q618 188 593 136T533 50T450 0T342 -16Q289
-16 251 -2T187 39T150 101T138 180Q138 224 150 272L250 693ZM443 923L589 768L554 733L390 865L443 923Z" />
<glyph unicode="&#xda;" glyph-name="Uacute" horiz-adv-x="648" d="M250 693H318L217 274Q212 251 209 229T205 185Q205 155 212 130T236 85T280 55T348 44Q394 44 429 57T490 97T536 168T570 271L672 693H740L636 261Q618 188 593 136T533 50T450 0T342 -16Q289
-16 251 -2T187 39T150 101T138 180Q138 224 150 272L250 693ZM641 861L466 733L437 777L603 923L641 861Z" />
<glyph unicode="&#xdb;" glyph-name="Ucircumflex" horiz-adv-x="648" d="M250 693H318L217 274Q212 251 209 229T205 185Q205 155 212 130T236 85T280 55T348 44Q394 44 429 57T490 97T536 168T570 271L672 693H740L636 261Q618 188 593 136T533 50T450 0T342
-16Q289 -16 251 -2T187 39T150 101T138 180Q138 224 150 272L250 693ZM399 734L373 767L542 914L641 767L607 734L526 830L399 734Z" />
<glyph unicode="&#xdc;" glyph-name="Udieresis" horiz-adv-x="648" d="M250 693H318L217 274Q212 251 209 229T205 185Q205 155 212 130T236 85T280 55T348 44Q394 44 429 57T490 97T536 168T570 271L672 693H740L636 261Q618 188 593 136T533 50T450 0T342 -16Q289
-16 251 -2T187 39T150 101T138 180Q138 224 150 272L250 693ZM614 779Q591 779 581 791T570 821Q570 841 583 858T621 875Q643 875 653 862T664 833Q664 814 651 797T614 779ZM441 779Q419 779 409 791T398 821Q398 841 411 858T448 875Q471 875 481 862T492 833Q492
814 479 797T441 779Z" />
<glyph unicode="&#xdd;" glyph-name="Yacute" horiz-adv-x="555" d="M310 280Q291 331 274 385T240 492T208 596T180 693H254Q274 607 300 516T358 345Q392 383 430 427T505 517T575 608T634 693H715Q646 601 559 494T378 280L312 0H244L310 280ZM595 861L420
733L391 777L557 923L595 861Z" />
<glyph unicode="&#xde;" glyph-name="Thorn" horiz-adv-x="528" d="M250 693H318L289 572Q310 574 327 574T367 575Q489 575 549 533T610 393Q610 282 521 216T255 149H186L151 0H83L250 693ZM269 204Q342 204 393 218T477 257T525 316T540 390Q540 457 498 487T371
518Q324 518 301 516T274 513L200 204H269Z" />
<glyph unicode="&#xdf;" glyph-name="germandbls" horiz-adv-x="589" d="M171 102Q159 54 148 14T122 -62T88 -128T43 -189L-14 -180Q11 -146 28 -118T58 -61T79 -5T96 58L214 547Q229 610 253 653T308 724T378 763T458 776Q530 776 569 741T608 644Q608 609 595
581T563 528T522 485T480 447T448 413T435 379Q435 359 446 345T475 320T512 296T549 266T577 223T589 160Q589 116 572 84T527 30T463 -1T386 -12Q350 -12 313 -5T244 22L272 81Q294 67 325 58T388 48Q414 48 438 54T482 73T512 106T524 154Q524 184 513 204T484
239T447 266T409 293T381 326T369 370Q369 399 382 421T414 464T455 503T497 542T529 587T542 642Q542 679 521 699T459 719Q430 719 403 710T352 681T309 630T280 554L171 102Z" />
<glyph unicode="&#xe0;" glyph-name="agrave" horiz-adv-x="522" d="M487 461Q469 465 454 467T423 469Q361 469 313 445T232 382T182 293T164 191Q164 150 172 123T194 79T226 55T266 47Q307 47 343 66T411 122Q411 149 419 184T434 247L487 461ZM429 -6Q423
6 419 21T412 53Q377 19 339 3T259 -13Q227 -13 198 -2T147 32T112 91T98 178Q98 258 124 323T196 433T306 504T445 529Q507 529 564 508L487 197Q481 172 477 150T473 108Q473 81 478 57T496 4L429 -6ZM363 773L509 618L474 583L310 715L363 773Z" />
<glyph unicode="&#xe1;" glyph-name="aacute" horiz-adv-x="522" d="M487 461Q469 465 454 467T423 469Q361 469 313 445T232 382T182 293T164 191Q164 150 172 123T194 79T226 55T266 47Q307 47 343 66T411 122Q411 149 419 184T434 247L487 461ZM429 -6Q423
6 419 21T412 53Q377 19 339 3T259 -13Q227 -13 198 -2T147 32T112 91T98 178Q98 258 124 323T196 433T306 504T445 529Q507 529 564 508L487 197Q481 172 477 150T473 108Q473 81 478 57T496 4L429 -6ZM579 711L404 583L375 627L541 773L579 711Z" />
<glyph unicode="&#xe2;" glyph-name="acircumflex" horiz-adv-x="522" d="M487 461Q469 465 454 467T423 469Q361 469 313 445T232 382T182 293T164 191Q164 150 172 123T194 79T226 55T266 47Q307 47 343 66T411 122Q411 149 419 184T434 247L487 461ZM429 -6Q423
6 419 21T412 53Q377 19 339 3T259 -13Q227 -13 198 -2T147 32T112 91T98 178Q98 258 124 323T196 433T306 504T445 529Q507 529 564 508L487 197Q481 172 477 150T473 108Q473 81 478 57T496 4L429 -6ZM313 583L287 616L456 763L555 616L521 583L440 679L313 583Z"
/>
<glyph unicode="&#xe3;" glyph-name="atilde" horiz-adv-x="522" d="M487 461Q469 465 454 467T423 469Q361 469 313 445T232 382T182 293T164 191Q164 150 172 123T194 79T226 55T266 47Q307 47 343 66T411 122Q411 149 419 184T434 247L487 461ZM429 -6Q423
6 419 21T412 53Q377 19 339 3T259 -13Q227 -13 198 -2T147 32T112 91T98 178Q98 258 124 323T196 433T306 504T445 529Q507 529 564 508L487 197Q481 172 477 150T473 108Q473 81 478 57T496 4L429 -6ZM484 629Q465 629 451 635T424 648T398 662T366 668Q344 668
330 657T300 622L264 644Q272 658 282 672T305 697T337 714T380 721Q398 721 412 715T439 702T466 688T498 682Q520 682 534 693T564 728L600 705Q592 691 582 677T559 653T527 636T484 629Z" />
<glyph unicode="&#xe4;" glyph-name="adieresis" horiz-adv-x="522" d="M487 461Q469 465 454 467T423 469Q361 469 313 445T232 382T182 293T164 191Q164 150 172 123T194 79T226 55T266 47Q307 47 343 66T411 122Q411 149 419 184T434 247L487 461ZM429 -6Q423
6 419 21T412 53Q377 19 339 3T259 -13Q227 -13 198 -2T147 32T112 91T98 178Q98 258 124 323T196 433T306 504T445 529Q507 529 564 508L487 197Q481 172 477 150T473 108Q473 81 478 57T496 4L429 -6ZM525 625Q502 625 492 637T481 667Q481 687 494 704T532 721Q554
721 564 708T575 679Q575 660 562 643T525 625ZM352 625Q330 625 320 637T309 667Q309 687 322 704T359 721Q382 721 392 708T403 679Q403 660 390 643T352 625Z" />
<glyph unicode="&#xe5;" glyph-name="aring" horiz-adv-x="522" d="M487 461Q469 465 454 467T423 469Q361 469 313 445T232 382T182 293T164 191Q164 150 172 123T194 79T226 55T266 47Q307 47 343 66T411 122Q411 149 419 184T434 247L487 461ZM429 -6Q423 6
419 21T412 53Q377 19 339 3T259 -13Q227 -13 198 -2T147 32T112 91T98 178Q98 258 124 323T196 433T306 504T445 529Q507 529 564 508L487 197Q481 172 477 150T473 108Q473 81 478 57T496 4L429 -6ZM542 676Q542 654 535 637T514 607T484 587T447 580Q408 580
380 606T351 676Q351 719 379 745T447 771Q466 771 483 764T514 745T534 715T542 676ZM504 676Q504 704 488 719T447 735Q423 735 407 720T390 676Q390 647 406 632T447 617Q471 617 487 632T504 676Z" />
<glyph unicode="&#xe6;" glyph-name="ae" horiz-adv-x="773" d="M292 529Q366 529 407 499T465 417Q503 473 560 501T674 529Q703 529 729 521T774 497T805 455T817 396Q817 337 795 301T728 244T616 214T459 202Q459 197 459 192T458 183Q458 139 469 112T499
71T543 53T598 48Q660 48 733 83L740 23Q710 9 667 -1T579 -12Q504 -12 463 18T405 99Q370 49 318 19T196 -12Q167 -12 141 -4T96 21T65 63T54 121Q54 179 76 215T144 273T256 303T414 317Q414 322 414 326T415 334Q415 378 404 405T374 446T328 466T273 471Q211
471 138 436L131 494Q161 508 204 518T292 529ZM751 392Q751 430 728 450T665 470Q635 470 605 458T548 421T500 356T469 261Q554 262 609 271T695 296T739 336T751 392ZM120 125Q120 87 143 67T206 47Q236 47 267 59T325 96T372 160T404 254Q318 252 263 244T176
219T132 180T120 125Z" />
<glyph unicode="&#xe7;" glyph-name="ccedilla" horiz-adv-x="455" d="M154 -132Q176 -141 203 -141Q226 -141 240 -134T254 -110Q254 -95 245 -86T207 -66Q213 -54 223 -39T244 -9Q171 1 135 51T98 183Q98 251 119 313T180 424T280 500T414 529Q466 529 517 512L490
453Q467 462 445 465T401 469Q348 469 305 447T230 386T182 297T165 190Q165 124 195 86T293 48Q314 48 335 52T375 61T407 73T428 84L435 25Q416 13 377 2T290 -12Q285 -19 281 -26T273 -38Q296 -51 306 -64T317 -102Q317 -143 286 -165T206 -187Q189 -187 173
-185T136 -175L154 -132Z" />
<glyph unicode="&#xe8;" glyph-name="egrave" horiz-adv-x="488" d="M540 396Q540 340 513 305T436 250T317 220T162 207V186Q162 157 168 132T190 89T234 59T308 48Q343 48 378 58T446 88L453 28Q419 9 378 -1T295 -12Q240 -12 203 2T142 41T108 101T98 178Q98
242 117 305T175 418T268 498T395 529Q465 529 502 493T540 396ZM389 470Q349 470 314 454T251 409T203 344T172 266Q257 268 315 277T408 302T459 340T474 392Q474 431 451 450T389 470ZM352 773L498 618L463 583L299 715L352 773Z" />
<glyph unicode="&#xe9;" glyph-name="eacute" horiz-adv-x="488" d="M540 396Q540 340 513 305T436 250T317 220T162 207V186Q162 157 168 132T190 89T234 59T308 48Q343 48 378 58T446 88L453 28Q419 9 378 -1T295 -12Q240 -12 203 2T142 41T108 101T98 178Q98
242 117 305T175 418T268 498T395 529Q465 529 502 493T540 396ZM389 470Q349 470 314 454T251 409T203 344T172 266Q257 268 315 277T408 302T459 340T474 392Q474 431 451 450T389 470ZM519 711L344 583L315 627L481 773L519 711Z" />
<glyph unicode="&#xea;" glyph-name="ecircumflex" horiz-adv-x="488" d="M540 396Q540 340 513 305T436 250T317 220T162 207V186Q162 157 168 132T190 89T234 59T308 48Q343 48 378 58T446 88L453 28Q419 9 378 -1T295 -12Q240 -12 203 2T142 41T108 101T98
178Q98 242 117 305T175 418T268 498T395 529Q465 529 502 493T540 396ZM389 470Q349 470 314 454T251 409T203 344T172 266Q257 268 315 277T408 302T459 340T474 392Q474 431 451 450T389 470ZM304 583L278 616L447 763L546 616L512 583L431 679L304 583Z" />
<glyph unicode="&#xeb;" glyph-name="edieresis" horiz-adv-x="488" d="M540 396Q540 340 513 305T436 250T317 220T162 207V186Q162 157 168 132T190 89T234 59T308 48Q343 48 378 58T446 88L453 28Q419 9 378 -1T295 -12Q240 -12 203 2T142 41T108 101T98 178Q98
242 117 305T175 418T268 498T395 529Q465 529 502 493T540 396ZM389 470Q349 470 314 454T251 409T203 344T172 266Q257 268 315 277T408 302T459 340T474 392Q474 431 451 450T389 470ZM507 625Q484 625 474 637T463 667Q463 687 476 704T514 721Q536 721 546
708T557 679Q557 660 544 643T507 625ZM334 625Q312 625 302 637T291 667Q291 687 304 704T341 721Q364 721 374 708T385 679Q385 660 372 643T334 625Z" />
<glyph unicode="&#xec;" glyph-name="igrave" horiz-adv-x="235" d="M208 517H273L148 0H83L208 517ZM443 773L589 618L554 583L390 715L443 773Z" />
<glyph unicode="&#xed;" glyph-name="iacute" horiz-adv-x="235" d="M208 517H273L148 0H83L208 517ZM643 711L468 583L439 627L605 773L643 711Z" />
<glyph unicode="&#xee;" glyph-name="icircumflex" horiz-adv-x="235" d="M208 517H273L148 0H83L208 517ZM410 583L384 616L553 763L652 616L618 583L537 679L410 583Z" />
<glyph unicode="&#xef;" glyph-name="idieresis" horiz-adv-x="235" d="M208 517H273L148 0H83L208 517ZM611 625Q588 625 578 637T567 667Q567 687 580 704T618 721Q640 721 650 708T661 679Q661 660 648 643T611 625ZM438 625Q416 625 406 637T395 667Q395 687
408 704T445 721Q468 721 478 708T489 679Q489 660 476 643T438 625Z" />
<glyph unicode="&#xf0;" glyph-name="eth" d="M550 627Q591 536 591 426Q591 389 585 343T565 247T528 152T471 69T389 10T280 -12Q235 -12 201 3T144 45T110 108T98 188Q98 257 121 312T183 407T271 467T374 488Q420 488 454 478T523 440Q522 481 514 523T487
607L355 565L348 617L461 653Q444 678 423 700T376 740L430 776Q459 756 483 731T526 673L657 715L664 663L550 627ZM290 47Q345 47 385 74T454 147T497 249T519 365Q488 399 456 414T374 429Q325 429 287 411T221 361T180 286T166 194Q166 163 173 136T196 90T234
59T290 47Z" />
<glyph unicode="&#xf1;" glyph-name="ntilde" horiz-adv-x="546" d="M202 499Q241 510 285 518T372 527Q408 527 440 520T496 493T534 443T548 366Q548 340 544 313T533 257L471 0H406L461 230Q469 263 475 297T483 362Q483 393 474 413T448 445T409 462T363 467Q337
467 310 463T257 453L148 0H83L202 499ZM462 629Q443 629 429 635T402 648T376 662T344 668Q322 668 308 657T278 622L242 644Q250 658 260 672T283 697T315 714T358 721Q376 721 390 715T417 702T444 688T476 682Q498 682 512 693T542 728L578 705Q570 691 560
677T537 653T505 636T462 629Z" />
<glyph unicode="&#xf2;" glyph-name="ograve" horiz-adv-x="526" d="M164 166Q164 107 197 77T276 47Q312 47 350 65T419 121T471 216T492 350Q492 409 459 439T380 469Q344 469 306 451T237 395T185 300T164 166ZM558 355Q558 261 532 192T464 78T372 10T272
-12Q237 -12 206 -1T150 32T112 86T98 162Q98 256 124 325T192 439T284 506T384 528Q419 528 450 517T506 484T544 430T558 355ZM352 773L498 618L463 583L299 715L352 773Z" />
<glyph unicode="&#xf3;" glyph-name="oacute" horiz-adv-x="526" d="M164 166Q164 107 197 77T276 47Q312 47 350 65T419 121T471 216T492 350Q492 409 459 439T380 469Q344 469 306 451T237 395T185 300T164 166ZM558 355Q558 261 532 192T464 78T372 10T272
-12Q237 -12 206 -1T150 32T112 86T98 162Q98 256 124 325T192 439T284 506T384 528Q419 528 450 517T506 484T544 430T558 355ZM542 711L367 583L338 627L504 773L542 711Z" />
<glyph unicode="&#xf4;" glyph-name="ocircumflex" horiz-adv-x="526" d="M164 166Q164 107 197 77T276 47Q312 47 350 65T419 121T471 216T492 350Q492 409 459 439T380 469Q344 469 306 451T237 395T185 300T164 166ZM558 355Q558 261 532 192T464 78T372 10T272
-12Q237 -12 206 -1T150 32T112 86T98 162Q98 256 124 325T192 439T284 506T384 528Q419 528 450 517T506 484T544 430T558 355ZM305 583L279 616L448 763L547 616L513 583L432 679L305 583Z" />
<glyph unicode="&#xf5;" glyph-name="otilde" horiz-adv-x="526" d="M164 166Q164 107 197 77T276 47Q312 47 350 65T419 121T471 216T492 350Q492 409 459 439T380 469Q344 469 306 451T237 395T185 300T164 166ZM558 355Q558 261 532 192T464 78T372 10T272
-12Q237 -12 206 -1T150 32T112 86T98 162Q98 256 124 325T192 439T284 506T384 528Q419 528 450 517T506 484T544 430T558 355ZM476 629Q457 629 443 635T416 648T390 662T358 668Q336 668 322 657T292 622L256 644Q264 658 274 672T297 697T329 714T372 721Q390
721 404 715T431 702T458 688T490 682Q512 682 526 693T556 728L592 705Q584 691 574 677T551 653T519 636T476 629Z" />
<glyph unicode="&#xf6;" glyph-name="odieresis" horiz-adv-x="526" d="M164 166Q164 107 197 77T276 47Q312 47 350 65T419 121T471 216T492 350Q492 409 459 439T380 469Q344 469 306 451T237 395T185 300T164 166ZM558 355Q558 261 532 192T464 78T372 10T272
-12Q237 -12 206 -1T150 32T112 86T98 162Q98 256 124 325T192 439T284 506T384 528Q419 528 450 517T506 484T544 430T558 355ZM509 625Q486 625 476 637T465 667Q465 687 478 704T516 721Q538 721 548 708T559 679Q559 660 546 643T509 625ZM336 625Q314 625
304 637T293 667Q293 687 306 704T343 721Q366 721 376 708T387 679Q387 660 374 643T336 625Z" />
<glyph unicode="&#xf7;" glyph-name="divide" horiz-adv-x="564" d="M295 56Q275 56 265 70T260 105Q265 127 282 141T319 155Q340 155 350 141T355 105Q350 84 333 70T295 56ZM386 432Q366 432 356 446T351 482Q356 503 373 517T410 531Q431 531 441 517T446
482Q441 460 424 446T386 432ZM134 322H586L573 266H121L134 322Z" />
<glyph unicode="&#xf8;" glyph-name="oslash" horiz-adv-x="526" d="M558 355Q558 261 532 192T464 78T372 10T272 -12Q242 -12 214 -4T163 21L114 -35L75 -2L128 58Q114 78 106 104T98 162Q98 256 124 325T192 439T284 506T384 528Q419 528 450 517T505 485L559
546L598 514L536 444Q558 406 558 355ZM164 166Q164 149 166 136T174 110L462 436Q430 469 380 469Q344 469 306 451T237 395T185 300T164 166ZM492 350Q492 370 487 388L206 69Q234 47 276 47Q312 47 350 65T419 121T471 216T492 350Z" />
<glyph unicode="&#xf9;" glyph-name="ugrave" horiz-adv-x="522" d="M248 -12Q205 -12 176 -1T130 29T106 75T98 133Q98 162 103 194T116 260L178 517H243L188 289Q180 254 171 216T161 142Q161 122 165 105T181 75T210 55T256 48Q304 48 340 67T409 122Q409 149
417 184T432 247L499 517H564L485 197Q479 172 475 150T471 108Q471 81 476 57T494 4L427 -6Q421 6 417 21T410 53Q375 19 336 4T248 -12ZM298 773L444 618L409 583L245 715L298 773Z" />
<glyph unicode="&#xfa;" glyph-name="uacute" horiz-adv-x="522" d="M248 -12Q205 -12 176 -1T130 29T106 75T98 133Q98 162 103 194T116 260L178 517H243L188 289Q180 254 171 216T161 142Q161 122 165 105T181 75T210 55T256 48Q304 48 340 67T409 122Q409 149
417 184T432 247L499 517H564L485 197Q479 172 475 150T471 108Q471 81 476 57T494 4L427 -6Q421 6 417 21T410 53Q375 19 336 4T248 -12ZM518 711L343 583L314 627L480 773L518 711Z" />
<glyph unicode="&#xfb;" glyph-name="ucircumflex" horiz-adv-x="522" d="M248 -12Q205 -12 176 -1T130 29T106 75T98 133Q98 162 103 194T116 260L178 517H243L188 289Q180 254 171 216T161 142Q161 122 165 105T181 75T210 55T256 48Q304 48 340 67T409 122Q409
149 417 184T432 247L499 517H564L485 197Q479 172 475 150T471 108Q471 81 476 57T494 4L427 -6Q421 6 417 21T410 53Q375 19 336 4T248 -12ZM278 583L252 616L421 763L520 616L486 583L405 679L278 583Z" />
<glyph unicode="&#xfc;" glyph-name="udieresis" horiz-adv-x="522" d="M248 -12Q205 -12 176 -1T130 29T106 75T98 133Q98 162 103 194T116 260L178 517H243L188 289Q180 254 171 216T161 142Q161 122 165 105T181 75T210 55T256 48Q304 48 340 67T409 122Q409
149 417 184T432 247L499 517H564L485 197Q479 172 475 150T471 108Q471 81 476 57T494 4L427 -6Q421 6 417 21T410 53Q375 19 336 4T248 -12ZM485 625Q462 625 452 637T441 667Q441 687 454 704T492 721Q514 721 524 708T535 679Q535 660 522 643T485 625ZM312
625Q290 625 280 637T269 667Q269 687 282 704T319 721Q342 721 352 708T363 679Q363 660 350 643T312 625Z" />
<glyph unicode="&#xfd;" glyph-name="yacute" horiz-adv-x="452" d="M-36 -116Q-9 -131 25 -131Q76 -131 125 -103T216 -18Q174 115 150 252T122 517H190Q192 469 196 412T210 293T232 167T264 41Q309 112 345 184T408 321T452 436T478 517H542Q536 496 520 446T477
328T412 184T323 32Q246 -83 174 -135T24 -188Q6 -188 -15 -185T-59 -170L-36 -116ZM474 711L299 583L270 627L436 773L474 711Z" />
<glyph unicode="&#xfe;" glyph-name="thorn" horiz-adv-x="519" d="M273 517Q321 529 369 529Q461 529 506 481T551 339Q551 270 529 207T465 96T361 20T220 -9Q181 -9 148 0L104 -185H38L176 388L202 496L266 764L334 776L273 517ZM164 60Q195 51 227 51Q289
51 337 74T418 136T468 225T485 329Q485 404 452 438T353 473Q330 473 307 469T258 458L164 60Z" />
<glyph unicode="&#xff;" glyph-name="ydieresis" horiz-adv-x="452" d="M-36 -116Q-9 -131 25 -131Q76 -131 125 -103T216 -18Q174 115 150 252T122 517H190Q192 469 196 412T210 293T232 167T264 41Q309 112 345 184T408 321T452 436T478 517H542Q536 496 520
446T477 328T412 184T323 32Q246 -83 174 -135T24 -188Q6 -188 -15 -185T-59 -170L-36 -116ZM436 625Q413 625 403 637T392 667Q392 687 405 704T443 721Q465 721 475 708T486 679Q486 660 473 643T436 625ZM263 625Q241 625 231 637T220 667Q220 687 233 704T270
721Q293 721 303 708T314 679Q314 660 301 643T263 625Z" />
<glyph unicode="&#x2013;" glyph-name="endash" horiz-adv-x="489" d="M72 334H571L558 277H58L72 334Z" />
<glyph unicode="&#x2014;" glyph-name="emdash" horiz-adv-x="990" d="M72 334H1072L1057 277H58L72 334Z" />
<glyph unicode="&#x2018;" glyph-name="quoteleft" horiz-adv-x="236" d="M314 751L364 731Q346 705 332 682T308 635T290 586T279 532H198Q204 562 216 592T244 651T278 704T314 751Z" />
<glyph unicode="&#x2019;" glyph-name="quoteright" horiz-adv-x="236" d="M237 522L187 542Q205 568 219 591T243 638T261 687T272 741H353Q347 711 335 681T307 622T273 569T237 522Z" />
<glyph unicode="&#x201a;" glyph-name="quotesinglbase" horiz-adv-x="227" d="M70 -124L18 -103Q56 -51 77 -6T108 95H189Q177 38 147 -16T70 -124Z" />
<glyph unicode="&#x201c;" glyph-name="quotedblleft" horiz-adv-x="396" d="M478 751L528 731Q510 705 496 682T472 635T454 586T443 532H362Q368 562 380 592T408 651T442 704T478 751ZM314 751L364 731Q346 705 332 682T308 635T290 586T279 532H198Q204 562
216 592T244 651T278 704T314 751Z" />
<glyph unicode="&#x201d;" glyph-name="quotedblright" horiz-adv-x="396" d="M484 522L434 542Q452 568 466 591T490 638T508 687T519 741H600Q594 711 582 681T554 622T520 569T484 522ZM391 522L341 542Q359 568 373 591T397 638T415 687T426 741H507Q501 711
489 681T461 622T427 569T391 522Z" />
<glyph unicode="&#x201e;" glyph-name="quotedblbase" horiz-adv-x="392" d="M70 -124L18 -103Q56 -51 77 -6T108 95H189Q177 38 147 -16T70 -124ZM235 -124L183 -103Q221 -51 242 -6T273 95H354Q342 38 312 -16T235 -124Z" />
<glyph unicode="&#x2022;" glyph-name="bullet" horiz-adv-x="336" d="M388 353Q388 329 380 307T356 269T318 243T268 233Q240 233 218 242T180 268T156 307T148 353Q148 377 156 398T179 436T217 463T268 473Q296 473 318 463T355 437T379 399T388 353Z" />
<glyph unicode="&#x2039;" glyph-name="guilsinglleft" horiz-adv-x="301" d="M232 72L118 284L307 495L343 465L195 280L278 94L232 72Z" />
<glyph unicode="&#x203a;" glyph-name="guilsinglright" horiz-adv-x="301" d="M219 495L333 283L144 72L108 102L256 287L173 473L219 495Z" />
</font>
</defs>
</svg>
